Oh! Henry 2013 Bangeli Movie WEBRip[x264 -AAC]

Oh! Henry 2013 Bangeli Movie WEBRip[x264 -AAC]
https://www.imdb.com/title/tt5468594/


General
Complete name : Oh! Henry 2013 Bangeli Movie WEBRip[x264 -AAC].mp4
Format : MPEG-4
Format profile : Base Media
Codec ID : isom (isom/iso2/avc1/mp41)
File size : 1.10 GiB
Duration : 2 h 18 min
Overall bit rate mode : Variable
Overall bit rate : 1 143 kb/s
Encoded date : UTC 1970-01-01 00:00:00
Tagged date : UTC 1970-01-01 00:00:00
Writing application : Lavf52.94.0
Video
ID : 1
Format : AVC
Format/Info : Advanced Video Codec
Format profile : Main@L3.1
Format settings : CABAC / 2 Ref Frames
Format settings, CABAC : Yes
Format settings, RefFrames : 2 frames
Codec ID : avc1
Codec ID/Info : Advanced Video Coding
Duration : 2 h 18 min
Duration_FirstFrame : -67 ms
Bit rate : 1 104 kb/s
Width : 1 280 pixels
Height : 720 pixels
Display aspect ratio : 16:9
Frame rate mode : Variable
Frame rate : 29.970 FPS
Minimum frame rate : 9.990 FPS
Maximum frame rate : 29.970 FPS
Color space : YUV
Chroma subsampling : 4:2:0
Bit depth : 8 bits
Scan type : Progressive
Bits/(Pixel*Frame) : 0.040
Stream size : 1.07 GiB (96%)
Writing library : x264 core 112 r1834 a51816a
Encoding settings : cabac=1 / ref=1 / deblock=1:0:0 / analyse=0x1:0 / me=dia / subme=2 / psy=1 / psy_rd=0.00:0.00 / mixed_ref=0 / me_range=16 / chroma_me=1 / trellis=0 / 8x8dct=0 / cqm=0 / deadzone=21,11 / fast_pskip=1 / chroma_qp_offset=0 / threads=12 / sliced_threads=0 / nr=0 / decimate=1 / interlaced=0 / constrained_intra=0 / bframes=3 / b_pyramid=0 / b_adapt=1 / b_bias=0 / direct=3 / weightb=0 / open_gop=0 / weightp=2 / keyint=250 / keyint_min=25 / scenecut=40 / intra_refresh=0 / rc_lookahead=40 / rc=abr / mbtree=1 / bitrate=1104 / ratetol=1.0 / qcomp=0.60 / qpmin=10 / qpmax=51 / qpstep=4 / ip_ratio=1.41 / aq=1:1.00
Encoded date : UTC 1970-01-01 00:00:00
Tagged date : UTC 1970-01-01 00:00:00
Audio
ID : 2
Format : AAC
Format/Info : Advanced Audio Codec
Format profile : LC
Codec ID : mp4a-40-2
Duration : 2 h 18 min
Bit rate mode : Variable
Bit rate : 34.7 kb/s
Channel(s) : 2 channels
Channel positions : Front: L R
Sampling rate : 48.0 kHz
Frame rate : 46.875 FPS (1024 SPF)
Compression mode : Lossy
Stream size : 34.3 MiB (3%)
Encoded date : UTC 1970-01-01 00:00:00
Tagged date : UTC 1970-01-01 00:00:00

More Quality Are Available to Download, Click these link below to Download your file in the best quality…

…::: Download Link :::…

Imcmovie Link

Openload Link

Clicknupload Link

Indishare Link

BDupload Link

The subtitle is also available on our Website, Download the subtitle Now…

Arabic Subtitle

English Subtitle

Hindi Subtitle

Bangla Subtitle

Shortcut Storyline

Free Download Pc 720p 480p Movies Download, 720p Bollywood Movies Download, 720p Hollywood Hindi Dubbed Movies Download, 720p 480p South Indian Hindi Dubbed Movies Download, Hollywood Bollywood Hollywood Hindi 720p Movies Download, Bollywood 720p Pc Movies Download 700mb 720p webhd  free download or world4ufree 9xmovies South Hindi Dubbad 720p Bollywood 720p DVDRip Dual Audio 720p Holly English 720p HEVC 720p Hollywood Dub 1080p Punjabi Movies South Dubbed 300mb Movies High Definition Quality (Bluray 720p 1080p 300MB MKV and Full HD Movies or watch online at BMcBD.Com.

Disclaimer:- All Our Posts are Free and Available On Internet Posted By Somebody Else, I’m Not Violating Any Copyright Law. If You think something is Violating the Law, Please Notify Us via Contact Form So That It Can Be Removed from Our Website…

Request Your Movies On Our FB Group, Join With Us…